#TITLE:Shining;
#SUBTITLE:;
#ARTIST:Girls Rock;
#TITLETRANSLIT:;
#SUBTITLETRANSLIT:;
#ARTISTTRANSLIT:;
#CREDIT:;
#BANNER:;
#BACKGROUND:;
#LYRICSPATH:;
#CDTITLE:;
#MUSIC:Shining.mp3;
#MUSICLENGTH:106.187;
#OFFSET:0.760;
#SAMPLESTART:31.672;
#SAMPLELENGTH:12.000;
#SELECTABLE:YES;
#BPMS:0.000=185.000;
#STOPS:;
#BGCHANGES:;
#FIRSTBEAT:4.000;

#LASTBEAT:326.000;

#SONGFILENAME:Songs/EXTRA/Shining/Shining.sm;

#HASMUSIC:1;

#HASBANNER:0;


//---------------dance-single - MANIAC----------------
#NOTES:
     dance-single:
     MANIAC:
     hard:
     8:
     0.608,0.691,0.631,0.104,0.014,374.000,67.000,11.000,0.000,0.000:  // measure 1
0000
0000
0000
0000
,  // measure 2
0101
1001
1100
1001
,  // measure 3
0011
1001
1010
1001
,  // measure 4
0110
1001
0011
0110
,  // measure 5
1100
1100
1001
0011
,  // measure 6
0011
0110
1001
0011
,  // measure 7
1100
1010
0101
1001
,  // measure 8
0110
0000
0110
0000
0011
0000
1010
1000
,  // measure 9
0100
1000
0100
1000
0000
1000
0100
0000
,  // measure 10
0001
0000
0100
0001
0010
0001
0000
0100
,  // measure 11
0000
0001
0010
0000
1000
0000
1000
0100
,  // measure 12
0000
1000
0010
0000
0001
0010
0000
0110
,  // measure 13
0000
0010
0001
0100
0010
0100
0000
1000
,  // measure 14
0000
0100
0010
0000
0001
1000
0000
0100
,  // measure 15
0000
0001
0100
0000
1000
0100
1000
0000
,  // measure 16
0010
0000
0100
0000
,  // measure 17
0001
0100
1000
0100
0010
0100
1000
0000
,  // measure 18
0001
0101
1000
1010
,  // measure 19
0001
0011
1000
1010
,  // measure 20
0010
0110
0001
1001
,  // measure 21
0100
0110
1000
1001
,  // measure 22
0100
0011
0100
1010
,  // measure 23
0010
0101
0010
1100
,  // measure 24
0001
0110
1000
0110
,  // measure 25
0010
0100
0010
0001
0000
0000
1100
0000
,  // measure 26
0100
0010
0001
0000
0001
0010
0100
0000
,  // measure 27
0100
0010
0100
0000
0100
1000
0100
0000
,  // measure 28
0100
1000
0010
0000
0010
0001
0010
0000
,  // measure 29
0010
1000
0100
0000
0100
0010
0100
0000
,  // measure 30
0100
0001
0010
0000
0010
0100
0010
0000
,  // measure 31
0010
0100
1000
0000
1000
0010
0001
0000
,  // measure 32
1000
0110
1000
0011
,  // measure 33
0010
0001
0100
0001
0000
0000
0000
0000
,  // measure 34
2010
0100
0010
0100
,  // measure 35
3002
1000
0100
1000
,  // measure 36
0023
0100
1000
0100
,  // measure 37
0230
1000
0010
0001
,  // measure 38
0320
0001
0100
0001
,  // measure 39
0230
0001
0302
0010
,  // measure 40
0023
0000
0000
0000
0000
0000
0000
0000
0000
0030
0000
0000
0010
0000
0000
0000
0001
0000
0000
0000
0010
0000
0000
0000
,  // measure 41
0001
0000
0000
0000
0000
0000
0000
0000
1000
0000
0000
0010
0000
0000
0100
0000
,  // measure 42
1000
0100
0010
0001
,  // measure 43
1000
0010
0100
0100
,  // measure 44
0001
1000
0001
0010
,  // measure 45
0001
0010
0001
1000
0001
0000
0100
0000
,  // measure 46
0010
0100
1000
0010
,  // measure 47
0100
0001
0010
1000
,  // measure 48
0001
0000
0100
0010
0000
1000
0001
0000
,  // measure 49
0010
0100
1000
0010
,  // measure 50
0100
0000
0001
0010
0001
1000
0100
0000
,  // measure 51
0100
0000
0010
0001
0000
1000
0010
0000
,  // measure 52
0100
0001
1000
0100
,  // measure 53
0010
0100
0010
0100
0010
0000
0001
0000
,  // measure 54
1000
0010
0100
0001
,  // measure 55
1000
0000
0001
0100
0000
0001
1000
0000
,  // measure 56
1100
0010
0001
1010
,  // measure 57
0010
1000
0100
0010
,  // measure 58
0001
0001
0001
0001
,  // measure 59
1000
1000
1000
1000
,  // measure 60
0010
0010
0020
0100
,  // measure 61
0100
0000
0100
0000
0100
0030
0110
0000
,  // measure 62
1001
0110
1010
0001
,  // measure 63
1010
0000
1000
0000
0100
0000
0010
0001
,  // measure 64
0100
0000
0100
0000
1000
0000
0010
0100
,  // measure 65
1000
0100
1010
0001
,  // measure 66
0110
1000
0110
0100
,  // measure 67
1001
1000
0010
0100
,  // measure 68
0011
1100
0011
1100
,  // measure 69
1001
0110
1001
0110
,  // measure 70
1000
0000
0100
0000
0010
0000
0001
0010
,  // measure 71
0001
1000
0100
0000
0010
0000
0100
0000
,  // measure 72
0010
1000
0001
0100
0010
0000
1000
0000
,  // measure 73
0100
0001
0100
1000
0010
0000
0010
0000
,  // measure 74
0010
1000
0100
0010
0100
0000
1000
0001
,  // measure 75
0000
1000
0010
0000
0100
0000
0001
0000
,  // measure 76
1000
0010
0100
0001
1000
0000
0001
0010
,  // measure 77
0000
0100
1000
0000
0010
0000
0100
0000
,  // measure 78
0001
1000
0000
0010
0100
0000
0001
1000
,  // measure 79
0000
0100
0010
0100
1000
0000
0001
0000
,  // measure 80
0100
0001
0000
0010
0100
0000
1000
0010
,  // measure 81
0000
0100
0001
0000
0010
0100
0220
0000
,  // measure 82
0000
0000
0330
0000
;

//---------------dance-single - ANOTHER----------------
#NOTES:
     dance-single:
     ANOTHER:
     medium:
     3:
     0.284,0.304,0.075,0.038,0.000,199.000,8.000,4.000,0.000,0.000:  // measure 1
0000
0000
0000
0000
,  // measure 2
0100
0000
0100
0000
,  // measure 3
0001
0000
0001
0000
,  // measure 4
1000
0000
1000
0000
,  // measure 5
0010
1000
0001
0000
,  // measure 6
0010
0001
1000
0000
,  // measure 7
0100
0000
0100
0000
,  // measure 8
0010
0000
0100
0000
,  // measure 9
0220
0000
0000
0330
,  // measure 10
0001
0000
1000
0000
,  // measure 11
0001
0000
0100
0100
,  // measure 12
0001
0000
1000
0000
,  // measure 13
0001
0000
0100
0100
,  // measure 14
0001
0000
1000
0000
,  // measure 15
0001
0000
0100
0100
,  // measure 16
0010
0000
1000
0000
,  // measure 17
0001
1000
0001
0010
,  // measure 18
0100
0000
0000
0000
,  // measure 19
0001
0000
0100
0010
,  // measure 20
0001
0000
1000
0000
,  // measure 21
0100
0000
0000
0100
,  // measure 22
0010
0000
0001
0000
,  // measure 23
1000
0000
0010
0000
,  // measure 24
0100
0010
0001
0010
,  // measure 25
0100
0100
0100
0100
,  // measure 26
0010
0000
0001
0000
,  // measure 27
1000
0000
0000
0100
,  // measure 28
0010
0000
0000
0001
,  // measure 29
1000
0010
0000
0010
,  // measure 30
0100
0000
0000
0000
,  // measure 31
0001
0000
0000
0000
,  // measure 32
1000
0001
0100
0010
,  // measure 33
0100
0001
0010
0000
,  // measure 34
1000
0000
0000
0000
,  // measure 35
0001
0000
0000
0010
,  // measure 36
0001
0000
0000
1000
,  // measure 37
0010
0000
0100
0000
,  // measure 38
0001
0000
1000
0000
,  // measure 39
0100
0000
0010
0000
,  // measure 40
0010
0010
0010
0010
,  // measure 41
1000
0001
1000
0100
,  // measure 42
0010
0001
0100
0000
,  // measure 43
0001
0100
1000
0000
,  // measure 44
1000
0100
0001
0000
,  // measure 45
0001
0010
1000
0000
,  // measure 46
1000
0010
0001
0000
,  // measure 47
0010
0100
0010
0000
,  // measure 48
1000
0100
0001
0010
,  // measure 49
1000
0010
0100
0010
,  // measure 50
1000
0000
0001
0000
,  // measure 51
0010
0000
0100
0000
,  // measure 52
0001
0000
1000
0000
,  // measure 53
0100
1000
0010
0000
,  // measure 54
0010
0001
0100
0000
,  // measure 55
0100
1000
0001
0000
,  // measure 56
0100
0100
0010
0000
,  // measure 57
0001
0001
1000
0010
,  // measure 58
0100
0000
0001
0000
,  // measure 59
1000
0000
0001
0000
,  // measure 60
0100
0000
0010
0000
,  // measure 61
0220
0000
0000
0330
,  // measure 62
0001
0000
1000
0000
,  // measure 63
0010
0000
1000
1000
,  // measure 64
1000
0000
0001
0001
,  // measure 65
0001
0100
0010
0010
,  // measure 66
0001
0000
1000
0000
,  // measure 67
0100
0000
0100
1000
,  // measure 68
0001
0000
0100
0001
,  // measure 69
1000
0000
0000
0010
,  // measure 70
0000
0100
0000
0001
,  // measure 71
0000
1000
0000
0010
,  // measure 72
0000
0110
0000
0001
,  // measure 73
0000
0000
1001
1001
,  // measure 74
1001
0000
0100
0000
,  // measure 75
0010
0000
0001
0000
,  // measure 76
1000
0000
0100
0000
,  // measure 77
1000
0100
1000
0010
,  // measure 78
0001
0000
0100
0000
,  // measure 79
0010
0000
0100
0000
,  // measure 80
1000
0000
0001
0000
,  // measure 81
0100
0000
0110
0110
;

//---------------dance-single - BASIC----------------
#NOTES:
     dance-single:
     BASIC:
     easy:
     1:
     0.105,0.228,0.000,0.019,0.000,76.000,0.000,2.000,0.000,0.000:  // measure 1
0000
0000
0000
0000
,  // measure 2
0000
0000
0000
0000
,  // measure 3
0100
0000
0000
0000
,  // measure 4
0000
0000
0000
0000
,  // measure 5
0001
0000
0000
0000
,  // measure 6
0000
0000
0000
0000
,  // measure 7
1000
0000
0000
0000
,  // measure 8
0000
0000
0000
0000
,  // measure 9
0200
0000
0000
0000
,  // measure 10
0310
0000
0000
0000
,  // measure 11
0000
0000
0000
0000
,  // measure 12
0010
0000
0000
0000
,  // measure 13
0000
0000
0000
0000
,  // measure 14
0010
0000
0000
0000
,  // measure 15
0000
0000
0000
0000
,  // measure 16
0010
0000
0010
0000
,  // measure 17
0010
0000
0000
0000
,  // measure 18
1000
0000
0000
0000
,  // measure 19
0000
0000
0000
0000
,  // measure 20
0000
0000
0000
0000
,  // measure 21
0001
0000
0000
0000
,  // measure 22
0001
0000
0000
0000
,  // measure 23
0000
0000
0000
0000
,  // measure 24
0100
0000
0000
0000
,  // measure 25
0010
0000
0100
0000
,  // measure 26
0010
0000
0000
0000
,  // measure 27
0000
0000
0000
0000
,  // measure 28
1000
0000
0000
0000
,  // measure 29
0000
0000
0000
0000
,  // measure 30
0010
0000
0000
0000
,  // measure 31
0000
0000
0000
0000
,  // measure 32
0001
0000
1000
0000
,  // measure 33
0001
0000
1000
0001
,  // measure 34
1000
0000
0000
0000
,  // measure 35
0000
0000
0000
0000
,  // measure 36
0001
0000
0000
0000
,  // measure 37
0000
0000
0000
0100
,  // measure 38
1000
0000
0000
0000
,  // measure 39
0000
0000
0000
0000
,  // measure 40
0010
0000
0000
0000
,  // measure 41
0001
0000
0001
0000
,  // measure 42
0001
0000
0000
0000
,  // measure 43
0000
0000
0000
0000
,  // measure 44
0010
0000
0000
0000
,  // measure 45
0100
0000
0000
0000
,  // measure 46
1000
0000
0000
0000
,  // measure 47
0100
0000
0000
0000
,  // measure 48
0000
0000
0000
0000
,  // measure 49
0000
0000
0000
0001
,  // measure 50
0001
0000
0000
1000
,  // measure 51
1000
0000
0000
0000
,  // measure 52
0100
0000
0000
0000
,  // measure 53
0010
0000
0000
0001
,  // measure 54
0001
0000
0000
1000
,  // measure 55
1000
0000
0000
0000
,  // measure 56
0010
0000
0000
0000
,  // measure 57
0200
0000
0000
0000
,  // measure 58
0000
0000
0000
0000
,  // measure 59
0000
0000
0000
0000
,  // measure 60
0001
0000
0000
0000
,  // measure 61
0000
0000
0000
0000
,  // measure 62
1000
0000
0000
0000
,  // measure 63
0001
0000
0000
0000
,  // measure 64
1000
0000
0001
0000
,  // measure 65
1000
0000
0001
1000
,  // measure 66
0301
0000
0100
0000
,  // measure 67
1000
0000
0010
0000
,  // measure 68
0001
0000
0100
0000
,  // measure 69
1000
0000
0010
0000
,  // measure 70
0001
0000
0000
0000
,  // measure 71
1000
0000
0000
0000
,  // measure 72
0010
0000
0000
0000
,  // measure 73
0000
0000
0000
0000
,  // measure 74
1000
0000
0000
0000
,  // measure 75
0100
0000
0000
0000
,  // measure 76
0010
0000
0000
0000
,  // measure 77
0001
0000
0000
0000
,  // measure 78
0000
0000
0000
0000
,  // measure 79
1000
0000
0000
0000
,  // measure 80
0001
0000
0000
0000
,  // measure 81
1000
0000
0100
0001
;
